extratorrent - A Fan Made Alternative Login   |   Register
Important Information
Registrations are open now
-------------------------------------

Please click here to register with Extratorrent2 to recieve latest updates, add bookmarks and to post comments.

Friends
Friends

1) ProxyFix

Extratorrent2 > Categories > TV > The.Big.Bang.Theory.S12E05.720p.HDTV.x265.6CH.ReEnc-LUMI torrent


Browse TV torrents

The.Big.Bang.Theory.S12E05.720p.HDTV.x265.6CH.ReEnc-LUMI torrent


Download torrent: Download The.Big.Bang.Theory.S12E05.720p.HDTV.x265.6CH.ReEnc-LUMI torrent Magnet link Bookmark Torrent: The.Big.Bang.Theory.S12E05.720p.HDTV.x265.6CH.ReEnc-LUMI   The.Big.Bang.Theory.S12E05.720p.HDTV.x265.6CH.ReEnc-LUMI torrent
Info hash: F492F17742105A51AD8B2406B7D11D64F0F47BF0
Category: Categories > TV
Trackers:
View all torrent trackers >
Health:
 seeds: 8 ,  leechers: 2 |  Update >
Torrent language: English English
Total Size: 149.5 MB
Files List:
1    View torrent files >
Uploader:
lumi265
Torrent added: October 23, 2018, 5:24 am
Tags: the, big, bang, theory, 720p, x265, hevc, lumi
Users rating: ---, not rated. please login to rate.

Download The.Big.Bang.Theory.S12E05.720p.HDTV.x265.6CH.ReEnc-LUMI torrent



Torrent Description

Please help by seeding for as long as possible so others can download!

If you'd like me to do more encodes, season packs, or TV shows, please contribute. Every little bit helps.

BTC: 3NK9rYXiHoX5YgDEdcxa2ukX5RoUZJhnum

Screens:




Please rate if good, and comment if there are any other resolutions or codecs you’d like me to try, or smaller size (slightly less quality?). I’m a new encoder and want to deliver what you guys want!

Note: I’m an encoder, not a ripper. I’m thankful to those who able great quality sources, allowing me to encode at lower resolutions or lower bitrates for those who want smaller filesize!

Source: The.Big.Bang.Theory.S12E05.720p.HDTV.x264-AVS[eztv] (Thanks!)

Video
ID : 1
Format : HEVC
Format/Info : High Efficiency Video Coding
Format profile : @Main
Codec ID : hev1
Codec ID/Info : High Efficiency Video Coding
Duration : 18 min 48 s
Bit rate : 912 kb/s
Width : 1 280 pixels
Height : 720 pixels
Display aspect ratio : 16:9
Frame rate mode : Variable
Frame rate : 23.976 (24000/1001) FPS
Minimum frame rate : 23.974 FPS
Maximum frame rate : 23.981 FPS
Color space : YUV
Chroma subsampling : 4:2:0
Bit depth : 8 bits
Bits/(Pixel*Frame) : 0.041
Stream size : 123 MiB (82%)
Writing library : x265 2.1:[Windows][GCC 5.3.1][64 bit] 8bit
Encoding settings : wpp / ctu=64 / min-cu-size=8 / max-tu-size=32 / tu-intra-depth=1 / tu-inter-depth=1 / me=3 / subme=3 / merange=57 / rect / no-amp / max-merge=3 / temporal-mvp / no-early-skip / rskip / rdpenalty=0 / no-tskip / no-tskip-fast / strong-intra-smoothing / no-lossless / no-cu-lossless / no-constrained-intra / no-fast-intra / open-gop / no-temporal-layers / interlace=0 / keyint=240 / min-keyint=24 / scenecut=40 / rc-lookahead=25 / lookahead-slices=4 / bframes=4 / bframe-bias=0 / b-adapt=2 / ref=4 / limit-refs=3 / limit-modes / weightp / no-weightb / aq-mode=1 / qg-size=32 / aq-strength=1.00 / cbqpoffs=0 / crqpoffs=0 / rd=4 / psy-rd=2.00 / rdoq-level=2 / psy-rdoq=1.00 / log2-max-poc-lsb=8 / no-rd-refine / signhide / deblock=0:0 / sao / no-sao-non-deblock / b-pyramid / cutree / no-intra-refresh / rc=crf / crf=22.0 / qcomp=0.60 / qpmin=0 / qpmax=69 / qpstep=4 / ipratio=1.40 / pbratio=1.30


Audio
ID : 2
Format : AAC LC
Format/Info : Advanced Audio Codec Low Complexity
Codec ID : mp4a-40-2
Duration : 18 min 48 s
Bit rate mode : Variable
Bit rate : 192 kb/s
Channel(s) : 6 channels
Channel layout : C L R Ls Rs LFE
Sampling rate : 48.0 kHz
Frame rate : 46.875 FPS (1024 SPF)
Compression mode : Lossy
Stream size : 25.9 MiB (17%)
Title : Surround / Surround





Download The.Big.Bang.Theory.S12E05.720p.HDTV.x265.6CH.ReEnc-LUMI torrent


Related Torrents


Comments   (please login to add your comment!)


Home - Browse Torrents

Made with love by an Extratorrent Fan!