extratorrent - A Fan Made Alternative Login   |   Register
Important Information
Registrations are open now
-------------------------------------

Please click here to register with Extratorrent2 to recieve latest updates, add bookmarks and to post comments.

Friends
Friends

1) ProxyFix

Extratorrent2 > Categories > TV > The Big Bang Theory S12E05 The Planetarium Collision 1080p 5.1 - 2.0 x264 Phun Psyz torrent


Browse TV torrents

The Big Bang Theory S12E05 The Planetarium Collision 1080p 5.1 - 2.0 x264 Phun Psyz torrent


Download torrent: Download The Big Bang Theory S12E05 The Planetarium Collision 1080p 5.1 - 2.0 x264 Phun Psyz torrent Magnet link Bookmark Torrent: The Big Bang Theory S12E05 The Planetarium Collision 1080p 5.1 - 2.0 x264 Phun Psyz   The Big Bang Theory S12E05 The Planetarium Collision 1080p 5.1 - 2.0 x264 Phun Psyz torrent
Info hash: 02654DCC595DCC2FED4BD824490780016A22B131
Category: Categories > TV
Trackers:
View all torrent trackers >
Health:
 seeds: 28 ,  leechers: 4 |  Update >
Torrent language: English English
Total Size: 315.3 MB
Files List:
1    View torrent files >
Uploader:
PhunPsyz
Torrent added: October 23, 2018, 5:19 am
Tags: Big, Bang, Theory, S12E05, 1080p, x264, Phun, Psyz
IMDB: http://www.imdb.com/title/tt6674694
Users rating: ---, not rated. please login to rate.

Download The Big Bang Theory S12E05 The Planetarium Collision 1080p 5.1 - 2.0 x264 Phun Psyz torrent



Torrent Description

www.imdb.com/title/tt6674694/?ref_=ttep_ep5

Amy doesn't have time to work with Sheldon on super asymmetry, so he goes to great lengths to ensure she's available. Koothrappali doesn't want Wolowitz to join him in hosting a show at the planetarium.

Source: Amzn







Format : MPEG-4
Format profile : Base Media / Version 2
Codec ID : mp42 (isom/iso2/avc1/mp41)
File size : 315 MiB
Duration : 18 min 57 s
Overall bit rate mode : Variable
Overall bit rate : 2 325 kb/s

Video
ID : 1
Format : AVC
Format/Info : Advanced Video Codec
Format profile :
Format settings : CABAC / 1 Ref Frames
Format settings, CABAC : Yes
Format settings, ReFrames : 1 frame
Codec ID : avc1
Codec ID/Info : Advanced Video Coding
Duration : 18 min 57 s
Bit rate : 1 840 kb/s
Width : 1 920 pixels
Height : 1 080 pixels
Display aspect ratio : 16:9
Frame rate mode : Constant
Frame rate : 24.000 FPS
Color space : YUV
Chroma subsampling : 4:2:0
Bit depth : 8 bits
Scan type : Progressive
Bits/(Pixel*Frame) : 0.037
Stream size : 250 MiB (79%)
Writing library : x264 core 155 r2901 7d0ff22

Audio #1
ID : 2
Format : AC-3
Format/Info : Audio Coding 3
Commercial name : Dolby Digital
Codec ID : ac-3
Duration : 18 min 57 s
Bit rate mode : Constant
Bit rate : 320 kb/s
Channel(s) : 6 channels
Channel layout : L R C LFE Ls Rs
Sampling rate : 48.0 kHz
Frame rate : 31.250 FPS (1536 SPF)
Bit depth : 16 bits
Compression mode : Lossy
Stream size : 43.4 MiB (14%)
Title : Surround / Surround
Language : English

Audio #2
ID : 3
Format : AAC LC
Format/Info : Advanced Audio Codec Low Complexity
Codec ID : mp4a-40-2
Duration : 18 min 57 s
Bit rate mode : Variable
Bit rate : 159 kb/s
Channel(s) : 2 channels
Channel layout : L R
Sampling rate : 48.0 kHz
Frame rate : 46.875 FPS (1024 SPF)
Compression mode : Lossy
Stream size : 21.6 MiB (7%)
Title : Stereo / Stereo
Language : English

Text
Language : English
Default : Yes
Forced : No


Download The Big Bang Theory S12E05 The Planetarium Collision 1080p 5.1 - 2.0 x264 Phun Psyz torrent


Related Torrents


Comments   (please login to add your comment!)


Home - Browse Torrents

Made with love by an Extratorrent Fan!